Details for this torrent 

Perfume Music Video Collection Limited Edition 2014 BluRay ISO
Type:
Video > Music videos
Files:
2
Size:
50.76 GiB (54503604224 Bytes)
Tag(s):
music video j-pop japanese pop synthpop electropop techno bitpop dance-pop
Uploaded:
2017-10-23 04:25:05 GMT
By:
__rick_
Seeders:
2
Leechers:
5
Comments
0  

Info Hash:
353FCF6182147C3961A172D19F6FF5916301F0DE




(Problems with magnets links are fixed by upgrading your torrent client!)
Perfume (パフューム Pafyūmu) is a Japanese pop girl group from Hiroshima Prefecture, Japan, consisting of Ayano Ōmoto ("Nocchi"), Yuka Kashino ("Kashiyuka") and Ayaka Nishiwaki ("A~chan").

The group was formed in early 2000 inside young talent academy Actors School Hiroshima, and debuted with their first Hiroshima-local single "Omajinai Perori" released on March 21, 2002. A year later they moved to Tokyo, started to work with Capsule's producer Yasutaka Nakata and released their first nationwide indie single, "Sweet Donuts" on August 6, 2003. In 2005 they got a major contract deal with Tokuma Japan Communications, and released their major debut single "Linear Motor Girl" on September 21.

Tracklist:

1. Linear Motor Girl (リニアモーターガール)
2. Computer City (コンピューターシティ)
3. Electro World (エレクトロ・ワールド)
4. Chocolate Disco (チョコレイト・ディスコ)
5. Twinkle Snow Powdery Snow
6. Polyrhythm (ポリリズム)
7. Baby cruising Love
8. Macaroni (マカロニ)
9. Secret Secret (シークレットシークレット)
10. Love the world
11. Dream Fighter
12. One Room Disco (ワンルーム・ディスコ)
13. I still love U
14. Fushizen na Girl (不自然なガール; Artificial Girl)
15. Natural ni Koishite (ナチュラルに恋して; Fall in Love Naturally)
16. VOICE
17. Nee (ねぇ; Hey)
18. Laser Beam -FULL Ver.- (レーザービーム)
19. GLITTER
20. Spice (スパイス)
21. Kasuka na Kaori -TV Ver.- (微かなカオリ; Faint Scent)
22. FAKE IT
23. Chocolate Disco -History Live Act Version- (チョコレイト・ディスコ)

PERFUME_CLIPS/BDMV/STREAM/00022.m2ts
File size                                : 1.33 GiB
Duration                                 : 4 min 29 s
Overall bit rate                         : 42.3 Mb/s
Maximum Overall bit rate                 : 48.0 Mb/s

Video
Format                                   : AVC
Format/Info                              : Advanced Video Codec
Format profile                           : [email protected]
Duration                                 : 4 min 30 s
Bit rate mode                            : Variable
Bit rate                                 : 38.3 Mb/s
Maximum bit rate                         : 39.0 Mb/s
Width                                    : 1 920 pixels
Height                                   : 1 080 pixels
Display aspect ratio                     : 16:9
Frame rate                               : 29.970 FPS
Scan type, store method                  : Interleaved fields
Stream size                              : 1.20 GiB (91%)

Audio
Format                                   : PCM
Duration                                 : 4 min 30 s
Bit rate mode                            : Constant
Bit rate                                 : 2 304 kb/s
Channel(s)                               : 2 channels
Sampling rate                            : 48.0 kHz
Bit depth                                : 24 bits
Stream size                              : 74.2 MiB (5%)

Screenshots:
 
http://imgpile.com/i/nKYgeE 
http://imgpile.com/i/nKY6VR 
http://imgpile.com/i/nKY3Cr