Chota Birbal | Naya Akbar Birbal | Suzanna Hamilton

Details for this torrent 

Acts of Violence 2017 1080p WEBRip 6CH AAC x264 - EiE
Type:
Video > HD - Movies
Files:
4
Size:
1.5 GiB (1607982233 Bytes)
Info:
IMDB
Uploaded:
2018-01-13 12:44:15 GMT
By:
samcode4u Trusted
Seeders:
58
Leechers:
5
Comments
0  

Info Hash:
6224B2C27EBBCB82F1DC60BD4A385AD8FCAD5631




(Problems with magnets links are fixed by upgrading your torrent client!)
Acts of Violence 2017 1080p WEBRip 6CH AAC x264 - EiE
 
http://www.imdb.com/title/tt6684714/


Screenshots:
 
http://lensdump.com/i/Y4vzP
 
http://lensdump.com/i/Y4nCZ
 
http://lensdump.com/i/Y4Lwm
 
http://lensdump.com/i/Y4Y1i


Video
ID                                       : 1
Format                                   : AVC
Format/Info                              : Advanced Video Codec
Format settings                          : CABAC / 4 Ref Frames
Format settings, CABAC                   : Yes
Format settings, RefFrames               : 4 frames
Codec ID                                 : avc1
Codec ID/Info                            : Advanced Video Coding
Duration                                 : 1 h 26 min
Bit rate                                 : 2 233 kb/s
Maximum bit rate                         : 9 898 kb/s
Width                                    : 1 904 pixels
Height                                   : 792 pixels
Display aspect ratio                     : 2.40:1
Frame rate mode                          : Constant
Frame rate                               : 23.976 FPS
Color space                              : YUV
Chroma subsampling                       : 4:2:0
Bit depth                                : 8 bits
Scan type                                : Progressive
Bits/(Pixel*Frame)                       : 0.062
Stream size                              : 1.35 GiB (90%)

Audio
ID                                       : 2
Format                                   : AAC
Format/Info                              : Advanced Audio Codec
Format profile                           : LC
Duration                                 : 1 h 26 min
Bit rate mode                            : Variable
Bit rate                                 : 238 kb/s
Maximum bit rate                         : 304 kb/s
Channel(s)                               : 6 channels
Channel positions                        : Front: L C R, Side: L R, LFE
Sampling rate                            : 48.0 kHz
Frame rate                               : 46.875 FPS
Compression mode                         : Lossy
Stream size                              : 148 MiB (10%)
Language                                 : English